фильм транс лицензия

 

 

 

 

Смотрите онлайн фильм Транс (2013) в Full HD качестве бесплатно.Дублированный [Лицензия]. У нас вы можете скачать торрент Транс / Trance (2013/BDRip) 720p от HQ-ViDEO, Лицензия, а также многие другие фильмы абсолютно бесплатно и в хорошем качестве. Страна: Великобритания, Франция Продолжительность: 1 час 41 минут Перевод: Дублированный [ лицензия].Скачать фильм Транс через торрент в хорошем качестве. Выпущено: Великобритания, Франция / 2013 Оригинальное название : Trance Жанр: триллер, драма, криминал, детективРейтинг КиноПоиска: 7.183. Смотреть фильм Транс онлайн. Для вашего удобства сможете смотреть фильм Транс 2013 онлайн на андройд и на айфон / айпэд. Плеер будет работать на андроид с поддержкой HLS Драмы, криминальные, триллеры. Режиссер: Дэнни Бойл. В ролях: Бен Кура, Вахаб Ахмед Шейх, Венсан Кассель и др. В фильме Транс банда грабителей под руководством аукционера Саймона похищает уникальный лот огромной стоимости. Фильмы.«Транс» 2013. Иногда соблазны оказываются сильнее здравого смысла и боязни наказания. Информация о фильме Название: Транс Оригинальное название: Trance (Trans)LFE Частота : 48,0 КГц Размер потока : 325 Мбайт (14) Заголовок : Дублированый ( Лицензия) Язык Rus-media.org - открытый торрент трекер - скачивайте любые торренты и смотрите фильмы ОНЛАЙН без регистрации иТранс-Пекос / Transpecos [триллер, 2016] BDRip 720p, Mvo. Драма, криминал, триллер. Режиссер: Дэнни Бойл. В ролях: Джеймс МакЭвой, Венсан Кассель, Розарио Доусон и др.

Саймон работает на одном известном аукционе. Однажды он не может устоять перед искушением - многомиллионным лотом. Чтобы фильм Транс / Trance (2013) смотреть онлайн в хорошем качестве полностью бесплатно, просто достаточно кликнуть по кнопки плеера. Смотреть фильм Транс / Trance (2013) онлайн: Добавлен HDRip [ЛИЦЕНЗИЯ] Оскароносный британский режиссер Дэнни Бойл Фильм Транс / Trance (2013). В ролях: Джеймс МакЭвой, Венсан Кассель, Розарио Доусон, Дэнни Сапани, Мэттью Кросс, Вахаб Ахмед Шейх, Марк Полтимор, Таппенс Мидлтон Newestmovies.ru представляет фильм Транс с дублированным переводом 2013 года выпуска в высокомПеревод: Русский дублированный (Лицензия). Наш рейтинг фильма: 0 (0). Лицензия.Транс через торрент Скачать бесплатно Транс Транс скачать торрент Транс смотреть онлайн Cкачать фильм Транс бесплатно Транс скачать торрент в хорошем качестве Скоро в кино: Новые фильмы: Транс (2013).Дублированное [лицензия]. Молодой человек по имени Саймон работает аукционером.

Триллер, драма, криминал. Режиссер: Дэнни Бойл. В ролях: Джеймс МакЭвой, Венсан Кассель, Розарио Доусон и др. Аукционер Саймон не в силах противостоять искушению — вступает в сговор с бандой грабителей и организует похищение уникального лота стоимостью в миллионы Зарубежные фильмы, драма, криминал. Аукционист Саймон, герой фильма « Транс», искушенный стоимостью полотна Гойи под названием «Ведьмы в воздухе», задумывает украсть уникальный лот. Русский (Лицензия). В качестве: HDRip.Смотреть онлайн: Транс (2013) HDRip - Чистый Звук Оригинальное название: Trance. Транс (2013). Главный герой фильма всю свою жизнь провел в окружении бесценных вещейФранцузские, Детективы Качество: BDRip Дублированный (Лицензия) Премьера (РФ): 4 апреля Озвучивание: Дублированное / лицензияСубтитры: АнглийскиеНа сайте PREVIEL.NET можно скачать новые фильмы, Игры, Софт, Программы. Фильм 2013, Криминал, Детектив, Драма, Триллер, HD. Трейлер к фильму " Транс ".2013 Режиссер: Дэнни Бойл Продолжительность: 101 мин. Перевод: Полный дубляж [ Лицензия! ] О фильме: Аукционер Саймон не в силах противостоять искушению — вступает в сговор с бандой грабителей и организуетMagnet link: Транс.2013.BDRip.1080p.HDR.mkv.torrent. Транс / Trance (2013/HDRip) [лицензия]. Выберите оценку Смысл?Информация о фильме Название: Транс Оригинальное название: Trance Год выхода: 2013 Жанр: Триллер,Драма Триллеры. Режиссер: Дэнни Бойл. В ролях: Джеймс МакЭвой, Таппенс Мидлтон, Ли Николас Харрис и др. Саймон работник известного аукциона. Однажды его взору представляется очень дорогая картина, покупателю которой придётся отдать за неё несколько миллионов долларов. Информация о фильме Название: Транс Оригинальное название: Trance Год выхода: 2013 Жанр: Триллер, ДрамаПродолжительность: 01:41:49 Перевод: Дубляж [лицензия]. скрины. Транс (2013) | HD 1080 Лицензия. Криминал, драма, триллер. Режиссер: Дэнни Бойл. Главный герой фильма Транс 2013 онлайн - Саймон, он аукционер. Его жизнь это лоты ценой сто тысяч долларов и более. Его обычную жизнь нарушает некая картина, цена которой запредельна, а соблазн очень велик. Информация о фильме Название: Транс Оригинальное название: Trance (Trans)LFE Частота : 48,0 КГц Размер потока : 325 Мбайт (14) Заголовок : Дублированый ( Лицензия) Язык Сотрудник аукционного дома Саймон отвечает за сохранность картин во время проведения аукциона и в случае опасности должен запереть картину в сейфе. Во время ограбления он получает удар по голове и просыпается в больнице с амнезией. Триллер, драма, криминал. Режиссер: Дэнни Бойл. В ролях: Джеймс МакЭвой, Венсан Кассель, Розарио Доусон и др. Аукционер Саймон не в силах противостоять искушению — вступает в сговор с бандой грабителей и организует похищение уникального лота стоимостью в миллионы Детективы, драмы, криминал. Режиссер: Дэнни Бойл. В ролях: Джеймс МакЭвой, Венсан Кассель, Розарио Доусон и др. Сотрудник аукционного дома Саймон отвечает за сохранность картин во время проведения аукциона и в случае опасности должен запереть картину в сейфе.криминал, детектив Качество: HDRip Озвучка: дублированный [Лицензия], Длительность: 101 минО чём фильм «Транс». Сотрудник аукционного дома Саймон отвечает за сохранность Детектив, драма, триллер. Режиссер: Дэнни Бойл. В ролях: Джеймс МакЭвой, Венсан Кассель, Розарио Доусон и др. Саймон - сотрудник в одном аукционном доме. На герое лежит ответственность за внушительное количество картин. Сюжет фильма Транс (2013). Сотрудник аукционного дома Саймон отвечает за сохранность картин во время проведенияФильм Транс (2013) онлайн в HD 720 качестве. Похожее кино.Шэйффер Выпущено: Великобритания Продолжительность: 01:35:38 Перевод: Дублированный [ лицензия].Кадры из фильма Транс (2013). Скачать фильм Транс (2013) через торрент Так в фильме "Транс" появляется Элизабет (актриса Розарио Доусон), но и здесь все не так просто.вконтакте. Лицензия на все фильмы принадлежат их правообладателям, но и у нас Триллеры, криминал, драмы. Информация о фильме Название: Транс Оригинальное название: Trance Год выхода: 2013 Жанр: триллер, драма, криминал Страна/Студия: Великобритания / Cloud Eight Films, Decibel Films, Film4 Транс / Trance (2013) HDRip от New Team.Сейчас посмотрю фильм и оценю, как никак тут Джеймс МакЭвой играет, а первый скриншот радует глаз! эпизод Фильм Транс. Категория. Люди и блоги. Лицензия.Обзор фильм Транс (Trance) 2013 - Продолжительность: 3:07 Обзоры кино, travels - Дельное кино 2 345 просмотров. Добавлено BDRip, HDRip, лицензия. Транс. Trance. Фильм выпущенФильм Транс / Trance скачать торрент - новинка кино 2013.

Уважаемые кинолюбитель, полный фильм Транс Вы можете посмотреть онлайн на своем смартфоне айфон, андроид или айпад (iPad, iPhone, Android) Драма, криминал, триллер. Режиссер: Дэнни Бойл. В ролях: Джеймс МакЭвой, Венсан Кассель, Розарио Доусон и др. Сюжет фильма «Транс » - это история аукционера по имени Саймон (Джеймс МакЭвой), который решается на преступление кражу картины Перевод: Профессиональный (Полное дублирование), [6ch], [Лицензия], Субтитры: Отсутствуют.У нас фильм Транс скачать можно бесплатно и без регистрации. Триллер, драма, криминал. Режиссер: Дэнни Бойл. В ролях: Джеймс МакЭвой Венсан Кассель Розарио Доусон Дэнни Сапани Мэттью Кросс Вахаб Ахмед Шейх Марк Полтимор Таппенс Мидлтон Саймон Кунц Майкл Шэйффер 7. Саймон работает в аукционном доме. Перевод:Дублированный [лицензия].Описание к фильму Транс (2013). Саймон сотрудник аукционного дома. Озвучивание: Дублированное [лицензия].Смотреть онлайн трейлер Транс : Описание фильма "Транс". В ролях: Дэнни Бойл, Джеймс МакЭвой, Венсан Кассель и др. Аукционер Саймон не в силах противостоять искушению — вступает в сговор с бандой грабителей и организует похищение уникального лота стоимостью в миллионы долларов. Транс / Trance (2013) HDRip от Scarabey | Лицензия.Скачать Транс, Trance, фильм бесплатно скачать торрент, триллер, драма, криминал, детектив - слова, новинка кино. Триллеры. Фильм Транс (2013) онлайн, Транс смотреть онлайн.

Новое на сайте:


 

  Languages